즐겨찾기 | 현재접속자 (59)
회원가입
작성일 : 17-07-07 17:34
콩: 스컬 아일랜드 Kong Skull Island 2017 1080p 3D BluRay Half-SBS x264 AAC 5.1 - Hon3y
글쓴이 : 익명
조회 : 140  
다운로드 : 콩: 스컬 아일랜드 Kong Skull Island 2017 1080p 3D BluRay Half-SBS x264 AAC 5.1 - Hon3y.torrent (19.9k)
콩: 스컬 아일랜드 Kong Skull Island 2017 1080p 3D BluRay Half-SBS x264 AAC 5 토렌트 파일 다운로드 마그넷 주소 무료 공짜 다시보기
Kong Skull Island 2017 1080p 3D BluRay Half-SBS x264 AAC 5.1 - Hon3y 

Source BD @ FGT. Many Thanks 


Format : Matroska 
Format version : Version 4 / Version 2 
File size : 2.76 GiB 
Duration : 1 h 58 min 
Overall bit rate : 3 336 kb/s 
Movie name : Kong Skull Island 2017 3D- [email protected]<script data-cfhash='f9e31' type="text/javascript">
Format settings, CABAC : Yes 
Format settings, ReFrames : 5 frames 
Codec ID : V_MPEG4/ISO/AVC 
Duration : 1 h 58 min 
Bit rate : 3 000 kb/s 
Width : 1 920 pixels 
Height : 800 pixels 
Display aspect ratio : 2.40:1 
Frame rate mode : Constant 
Frame rate : 23.976 (24000/1001) FPS 


Audio 
ID : 2 
Format : AAC 
Format/Info : Advanced Audio Codec 
Format profile : LC 
Codec ID : A_AAC 
Duration : 1 h 58 min 
Bit rate : 320 kb/s 
Channel(s) : 6 channels 
Channel positions : Front: L C R, Side: L R, LFE 
Sampling rate : 48.0 kHz 


Text #1 
ID : 3 
Format : UTF-8 
Codec ID : S_TEXT/UTF8 
Codec ID/Info : UTF-8 Plain Text 
Duration : 1 h 57 min 
Bit rate : 44 b/s 
Count of elements : 1250 
Stream size : 38.8 KiB (0%) 
Language : English 
Default : Yes 
Forced : No 

Text #2 
ID : 4 
Format : PGS 
Muxing mode : zlib 
Codec ID : S_HDMV/PGS 
Codec ID/Info : Picture based subtitle format used on BDs/HD-DVDs 
Duration : 1 h 58 min 
Bit rate : 14.0 kb/s 
Count of elements : 3060 
Stream size : 11.8 MiB (0%) 
Language : English 
Default : No 
Forced : No 


     
170705 170706 170707 콩: 스컬 아일랜드 Kong Skull Island 2017 1080p 3D BluRay Half-SBS x264 AAC 5 torrent 토론토 고화질 실시간 감상 보기

 

Total. 46,819
번호 제   목 글쓴이 날짜
46819 [3D] 쿰바: 반쪽무늬 얼룩말의 대모험 Khumba (201… 익명 07-21
46818 콩: 스컬 아일랜드 Kong Skull Island 2017 1080p 3D Blu… 익명 07-07
46817 [3D] 콩: 스컬 아일랜드 Kong.Skull.Island.2017.1080p.3… 익명 06-28
46816 콩; 스컬 아일랜드 Kong.Skull.Island.2017.3D.1080p.BRR… 익명 06-25
46815 콩: 스컬 아일랜드 [3D] Kong.Skull.Island.2017.3D.1080… 익명 06-24
46814 다이노소어 어드벤처 3D Walking.with.Dinosaurs.2013.… 익명 06-20
46813 다이노소어 어드벤처 3D Walking.with.Dinosaurs.2013.… 익명 06-20
46812 미녀와 야수 3D 듀얼 사운드 Beauty and the Beast. 2… 익명 06-18
46811 미녀와 야수 Beauty and the Beast 2017 1080p 3D BluRay H… 익명 06-16
46810 트리플 엑스 리턴즈 xXx.Return.of.Xander.Cage.2017.3D… 익명 06-15
46809 서유복요편 Journey.to.the.West.The.Demons.Strike.Back.2… 익명 06-15
46808 그레이트 월 The.Great.Wall.2016.1080p.3D.BluRay.Half-SB… 익명 06-15
46807 그레이트 월 The.Great.Wall.2016.3D.1080p.BluRay.x264-PS… 익명 06-15
46806 그레이트 월 The Great Wall / 2016 / [MULTI] / Blu-Ray 3… 익명 06-15
46805 포인트 브레이크 Point Break 2015 1080p 3D BluRay Half… 익명 06-15
46804 로그 원: 스타워즈 스토리 3D(좌우) Rogue.One.2016… 익명 06-15
46803 로그 원: 스타워즈 스토리 Rogue One 2016 1080p 3D B… 익명 06-15
46802 로그 원: 스타워즈 스토리 Rogue.One.2016.1080p.3D.B… 익명 06-15
46801 로그 원: 스타워즈 스토리 Rogue.One.2016.1080p.3D.B… 익명 06-15
46800 다이노소어 어드벤처 3D Walking.With.Dinosaurs.3D.20… 익명 06-15
46799 언더월드: 블러드 워 Underworld.Blood.Wars.2016.1080p… 익명 06-15
46798 언더월드: 블러드 워 Underworld.Blood.Wars.2016.1080p… 익명 06-15
46797 레지던트 이블: 파멸의 날 Resident.Evil.The.Final.C… 익명 06-15
46796 레지던트 이블: 파멸의 날 Resident.Evil.The.Final.C… 익명 06-15
46795 레지던트 이블: 파멸의 날 Resident.Evil.The.Final.C… 익명 06-15
46794 레지던트 이블: 파멸의 날 Resident.Evil.The.Final.C… 익명 06-15
46793 어쌔신 크리드 Assassins.Creed.2016.3D.1080p.BRRip.Half… 익명 06-15
46792 쥬라기 스쿨 Jurassic.School.3D.2017.1080p.BluRay.x264-J… 익명 06-15
46791 어쌔신 크리드 Assassins Creed 2016 1080p 3D BluRay Hal… 익명 06-15
46790 신비한 동물사전 Fantastic.Beasts.and.Where.to.Find.Th… 익명 06-15
 1  2  3  4  5  6  7  8  9  10